Sting 2024 1080p AMZN WEB-DL DDP5 1 H 264-BYNDR

seeders: 156
leechers: 115
updated:

Download Fast Safe Anonymous
movies, software, shows...
Summary:

After raising an unnervingly talented spider in secret, 12-year-old Charlotte must face the truth about her pet and fight for her family's survival.

Files

Sting 2024 1080p AMZN WEB-DL DDP5 1 H 264-BYNDR
  • Sting 2024 1080p AMZN WEB-DL DDP5 1 H 264-BYNDR.jpg (372.2 KB)
  • Sting 2024 1080p AMZN WEB-DL DDP5 1 H 264-BYNDR.mkv (6.1 GB)
  • Sting 2024 1080p AMZN WEB-DL DDP5 1 H 264-BYNDR.mkv.nfo (4.7 KB)

Description



Sting 2024 1080p AMZN WEB-DL DDP5 1 H 264-BYNDR




Format version : Version 4
File size : 6.09 GiB
Duration : 1 h 31 min
Overall bit rate : 9 522 kb/s
Frame rate : 24.000 FPS
Writing application : mkvmerge v83.0 ('Circle Of Friends') 64-bit
Writing library : libebml v1.4.5 + libmatroska v1.7.1

Video
ID : 1
Format : AVC
Format/Info : Advanced Video Codec
Format profile : High@L4
Format settings : CABAC / 4 Ref Frames
Format settings, CABAC : Yes
Format settings, Reference frames : 4 frames
Codec ID : V_MPEG4/ISO/AVC
Duration : 1 h 31 min
Bit rate mode : Constant
Bit rate : 8 693 kb/s
Nominal bit rate : 10 000 kb/s
Width : 1 920 pixels
Height : 1 040 pixels
Display aspect ratio : 1.85:1
Frame rate mode : Constant
Frame rate : 24.000 FPS
Color space : YUV
Chroma subsampling : 4:2:0
Bit depth : 8 bits
Scan type : Progressive
Bits/(Pixel*Frame) : 0.181
Stream size : 5.56 GiB (91%)
Default : Yes
Forced : No
Color range : Limited
Color primaries : BT.709
Transfer characteristics : BT.709
Matrix coefficients : BT.709

Audio
ID : 2
Format : E-AC-3
Format/Info : Enhanced AC-3
Commercial name : Dolby Digital Plus
Codec ID : A_EAC3
Duration : 1 h 31 min
Bit rate mode : Constant
Bit rate : 640 kb/s
Channel(s) : 6 channels
Channel layout : L R C LFE Ls Rs
Sampling rate : 48.0 kHz
Frame rate : 31.250 FPS (1536 SPF)
Compression mode : Lossy
Stream size : 419 MiB (7%)
Language : English
Service kind : Complete Main
Default : Yes
Forced : No

Text #1
ID : 3
Format : UTF-8
Codec ID : S_TEXT/UTF8
Codec ID/Info : UTF-8 Plain Text
Language : English
Default : No
Forced : N

Screen



Related Torrents

torrent name size uploader age seed leech
1.4 GB TGxGoodies 6
days
1364 501
796.6 MB TGxGoodies 6
days
889 427
2 GB TGxGoodies 6
days
403 232
1.4 GB BedBug 5
days
97 27
6.2 GB atomicfusion 5
days
88 92


Download torrent
6.1 GB
seeders:156
leechers:115
Sting 2024 1080p AMZN WEB-DL DDP5 1 H 264-BYNDR


Trackers

tracker name
udp://tracker.opentrackr.org:1337/announce
udp://exodus.desync.com:6969/announce
udp://9.rarbg.me:2970/announce
udp://tracker.opentrackr.org:1337/announce
udp://tracker.tiny-vps.com:6969/announce
udp://tracker.internetwarriors.net:1337/announce
udp://opentor.org:2710/announce
udp://tracker.torrent.eu.org:451/announce
udp://explodie.org:6969/announce
udp://tracker.moeking.me:6969/announce
udp://tracker.cyberia.is:6969/announce
udp://9.rarbg.me:2980/announce
udp://9.rarbg.to:2940/announce
udp://tracker.uw0.xyz:6969/announce
udp://tracker.openbittorrent.com:1337/announce
µTorrent compatible trackers list

Download torrent
6.1 GB
seeders:156
leechers:115
Sting 2024 1080p AMZN WEB-DL DDP5 1 H 264-BYNDR


Torrent hash: 34FB3A49654BFE3E2C5C3DAE9E3C3B88BC2D9480